18+ Wildling 2018 HDRip XviD AC3 With Sa Torrent Free Download

Seeders : 299   &   Leechers : 370      16-04-2018 (3 days)
18+ Wildling 2018 HDRip XviD AC3 With Sa Torrent Download
Added: ago by LifeLongg ***** in Movies   993.7 MB   Hits : 16
Info Hash: A44860ED5791F98582D31A952A14F92C2B39A478 Download
18+ Wildling 2018 HDRip XviD AC3 With Sa Torrent Download

Anonymous and Direct Download movies , software , shows...

Fast Safe Anonymous
movies, software, shows...

Torrent Description







******************************Thumbnail:**********************



******************************Screenshots:********************

Screenshot 1

Screenshot 2

Screenshot 3

Screenshot 4

Screenshot 5

Screenshot 6

Screenshot 7

Screenshot 8

Screenshot 9

Screenshot 0

**************************************************************

Complete name : 18+.Wildling.2018.HDRip.XviD.AC3.With.Sample.LLG.mp4
Format : MPEG-4
Format profile : Base Media
Codec ID : isom (isom/iso2/avc1/mp41)
File size : 961 MiB
Duration : 1 h 32 min
Overall bit rate : 1 452 kb/s
Writing application : Lavf57.56.101

Video
ID : 1
Format : AVC
Format/Info : Advanced Video Codec
Format profile : [email protected]
Format settings : CABAC / 4 Ref Frames
Format settings, CABAC : Yes
Format settings, RefFrames : 4 frames
Codec ID : avc1
Codec ID/Info : Advanced Video Coding
Duration : 1 h 32 min
Bit rate : 1 200 kb/s
Width : 720 pixels
Height : 304 pixels
Display aspect ratio : 2.35:1
Frame rate mode : Constant
Frame rate : 23.976 (23976/1000) FPS
Color space : YUV
Chroma subsampling : 4:2:0
Bit depth : 8 bits
Scan type : Progressive
Bits/(Pixel*Frame) : 0.229
Stream size : 788 MiB (82%)

Audio
ID : 2
Format : AC-3
Format/Info : Audio Coding 3
Codec ID : ac-3
Duration : 1 h 32 min
Bit rate mode : Constant
Bit rate : 256 kb/s
Channel(s) : 6 channels
Channel positions : Front: L C R, Side: L R, LFE
Sampling rate : 48.0 kHz
Frame rate : 31.250 FPS (1536 SPF)
Bit depth : 16 bits
Compression mode : Lossy
Stream size : 169 MiB (18%)
Service kind : Complete Main
Default : Yes
Alternate group : 1




Sharing Widget


No Comments For This Torrent . Be The First to Comment

You must Login to Comment . Click Here to Login

Menu 1

Some content in menu 1.

18+ Wildling 2018 HDRip XviD AC3 With Sample LLG (Size: 993.7 MB)
  18+ Wildling 2018 HDRip XviD AC3 With Sample LLG 993.7 MB
tracker name
udp://tracker.leechers-paradise.org:6969/announce
udp://zer0day.ch:1337/announce
udp://open.demonii.com:1337/announce
udp://tracker.coppersurfer.tk:6969/announce
udp://exodus.desync.com:6969/announce
µTorrent compatible trackers list

Relative Torrents

Torrent Name Size Age SEED LEECH
PowerISO FULL 9 1 + Crack 2018
Posted by    iDope   in   Apps
11.2 MB 4 minutes 304 342
Tight dresses go hand in hand with the wekend (35 Photos)
Posted by    iDope   in   Anime
7.4 MB 4 minutes 300 447
Rampage 2018 HD 720p [English+Hindi] [gekyapk in]
Posted by    iDope   in   Video
1.0 GB 4 minutes 951 161
20 Weeks 2017 HDRip XviD AC3-EVO[EtMovie]
Posted by    EtHD   in   Movies
1.3 GB 4 minutes 241 686
NRL 2018 Round 1 - Panthers v Eels 720p5 x264-VB mp4
Posted by    iDope   in   Video
4.5 GB 10 minutes 955 470